Zombieland Double Tap DTSX Issue

Please post here for issues related to UHD discs
Post Reply
spl147
Posts: 236
Joined: Mon Dec 10, 2012 4:59 pm

Zombieland Double Tap DTSX Issue

Post by spl147 » Sun Jan 26, 2020 1:34 pm

disc rips fine, but dtsx is lost in the process, the disc has dtsx, but when i convert to mkv there is no dtsx, when i rip to folder backup there is no dtsx.

does this disc just have a new dts hd with dtsx format mediainfo does not understand?

here is the mediainfo from the MKV rip:

Code: Select all

General
Unique ID                                : 330902389361446976452201935579896835022 (0xF8F17B66955E2D9D8C33B39C3FD36BCE)
Complete name                            : /Volumes/Video/Movies/Zombieland Double Tap (2019)-2160p/Zombieland Double Tap (2019)_DTSHD-MA.UHD Blu-ray.HDR10.mkv
Format                                   : Matroska
Format version                           : Version 2
File size                                : 41.1 GiB
Duration                                 : 1h 39mn
Overall bit rate mode                    : Variable
Overall bit rate                         : 59.5 Mbps
Movie name                               : Zombieland: Double Tap
Encoded date                             : UTC 2020-01-11 17:39:03
Writing application                      : MakeMKV v1.14.7 linux(x64-release)
Writing library                          : libmakemkv v1.14.7 (1.3.5/1.4.7) x86_64-linux-gnu

Video
ID                                       : 1
ID in the original source medium         : 4113 (0x1011)
Format                                   : HEVC
Format/Info                              : High Efficiency Video Coding
Format profile                           : Main 10@L5.1@High
HDR format                               : SMPTE ST 2086, HDR10 compatible
Codec ID                                 : V_MPEGH/ISO/HEVC
Duration                                 : 1h 39mn
Bit rate                                 : 54.2 Mbps
Width                                    : 3 840 pixels
Height                                   : 2 160 pixels
Display aspect ratio                     : 16:9
Frame rate mode                          : Constant
Frame rate                               : 23.976 (24000/1001) fps
Color space                              : YUV
Chroma subsampling                       : 4:2:0 (Type 2)
Bit depth                                : 10 bits
Bits/(Pixel*Frame)                       : 0.272
Stream size                              : 37.5 GiB (91%)
Language                                 : English
Default                                  : No
Forced                                   : No
Color range                              : Limited
Color primaries                          : BT.2020
Transfer characteristics                 : PQ
Matrix coefficients                      : BT.2020 non-constant
Mastering display color primaries        : Display P3
Mastering display luminance              : min: 0.0050 cd/m2, max: 4000 cd/m2
Maximum Content Light Level              : 1001 cd/m2
Maximum Frame-Average Light Level        : 387 cd/m2
Original source medium                   : Blu-ray

Audio
ID                                       : 2
ID in the original source medium         : 4352 (0x1100)
Format                                   : DTS XLL
Format/Info                              : Digital Theater Systems
Commercial name                          : DTS-HD Master Audio
Codec ID                                 : A_DTS
Duration                                 : 1h 39mn
Bit rate mode                            : Variable
Bit rate                                 : 5 292 Kbps
Channel(s)                               : 8 channels
Channel layout                           : C L R LFE Lb Rb Lss Rss
Sampling rate                            : 48.0 KHz
Frame rate                               : 93.750 fps (512 SPF)
Bit depth                                : 24 bits
Compression mode                         : Lossless
Stream size                              : 3.66 GiB (9%)
Title                                    : Surround 7.1
Language                                 : English
Default                                  : Yes
Forced                                   : No
Original source medium                   : Blu-ray

Text
ID                                       : 4
ID in the original source medium         : 4769 (0x12A1)
Format                                   : PGS
Codec ID                                 : S_HDMV/PGS
Codec ID/Info                            : Picture based subtitle format used on BDs/HD-DVDs
Duration                                 : 28mn 6s
Bit rate                                 : 487 bps
Count of elements                        : 14
Stream size                              : 100 KiB (0%)
Language                                 : English
Default                                  : No
Forced                                   : No
Original source medium                   : Blu-ray

Menu
00:00:00.000                             : en:Chapter 01
00:05:01.134                             : en:Chapter 02
00:11:08.000                             : en:Chapter 03
00:15:24.173                             : en:Chapter 04
00:21:16.191                             : en:Chapter 05
00:29:15.545                             : en:Chapter 06
00:36:55.421                             : en:Chapter 07
00:44:03.015                             : en:Chapter 08
00:50:12.968                             : en:Chapter 09
00:57:52.510                             : en:Chapter 10
01:03:51.869                             : en:Chapter 11
01:06:50.047                             : en:Chapter 12
01:10:12.124                             : en:Chapter 13
01:15:40.494                             : en:Chapter 14
01:23:45.311                             : en:Chapter 15
01:29:48.216                             : en:Chapter 16
Here is the Mediainfo from the FULL disc unprotected Backup:

Code: Select all

General
ID                                       : 0 (0x0)
Complete name                            : /Volumes/BT_Downloads/ZOMBIELAND_DOUBLE_TAP/BDMV/STREAM/00001.m2ts
Format                                   : BDAV
Format/Info                              : Blu-ray Video
File size                                : 52.8 GiB
Duration                                 : 1h 39mn
Overall bit rate mode                    : Variable
Overall bit rate                         : 76.4 Mbps
Maximum Overall bit rate                 : 109 Mbps

Video
ID                                       : 4113 (0x1011)
Menu ID                                  : 1 (0x1)
Format                                   : HEVC
Format/Info                              : High Efficiency Video Coding
Format profile                           : Main 10@L5.1@High
HDR format                               : SMPTE ST 2086, HDR10 compatible
Codec ID                                 : 36
Duration                                 : 1h 39mn
Width                                    : 3 840 pixels
Height                                   : 2 160 pixels
Display aspect ratio                     : 16:9
Frame rate                               : 23.976 (24000/1001) fps
Color space                              : YUV
Chroma subsampling                       : 4:2:0 (Type 2)
Bit depth                                : 10 bits
Color range                              : Limited
Color primaries                          : BT.2020
Transfer characteristics                 : PQ
Matrix coefficients                      : BT.2020 non-constant
Mastering display color primaries        : Display P3
Mastering display luminance              : min: 0.0050 cd/m2, max: 4000 cd/m2
Maximum Content Light Level              : 1001 cd/m2
Maximum Frame-Average Light Level        : 387 cd/m2

Audio #1
ID                                       : 4352 (0x1100)
Menu ID                                  : 1 (0x1)
Format                                   : DTS XLL
Format/Info                              : Digital Theater Systems
Commercial name                          : DTS-HD Master Audio
Muxing mode                              : Stream extension
Codec ID                                 : 134
Duration                                 : 1h 39mn
Bit rate mode                            : Variable
Channel(s)                               : 8 channels
Channel layout                           : C L R LFE Lb Rb Lss Rss
Sampling rate                            : 48.0 KHz
Frame rate                               : 93.750 fps (512 SPF)
Bit depth                                : 24 bits
Compression mode                         : Lossless

Audio #2
ID                                       : 4353 (0x1101)
Menu ID                                  : 1 (0x1)
Format                                   : AC-3
Format/Info                              : Audio Coding 3
Commercial name                          : Dolby Digital
Codec ID                                 : 129
Duration                                 : 1h 39mn
Bit rate mode                            : Constant
Bit rate                                 : 640 Kbps
Channel(s)                               : 6 channels
Channel layout                           : L R C LFE Ls Rs
Sampling rate                            : 48.0 KHz
Frame rate                               : 31.250 fps (1536 SPF)
Compression mode                         : Lossy
Delay relative to video                  : -8ms
Stream size                              : 453 MiB (1%)
Service kind                             : Complete Main

Audio #3
ID                                       : 4354 (0x1102)
Menu ID                                  : 1 (0x1)
Format                                   : AC-3
Format/Info                              : Audio Coding 3
Commercial name                          : Dolby Digital
Codec ID                                 : 129
Duration                                 : 1h 39mn
Bit rate mode                            : Constant
Bit rate                                 : 640 Kbps
Channel(s)                               : 6 channels
Channel layout                           : L R C LFE Ls Rs
Sampling rate                            : 48.0 KHz
Frame rate                               : 31.250 fps (1536 SPF)
Compression mode                         : Lossy
Delay relative to video                  : -8ms
Stream size                              : 453 MiB (1%)
Service kind                             : Complete Main

Audio #4
ID                                       : 4355 (0x1103)
Menu ID                                  : 1 (0x1)
Format                                   : AC-3
Format/Info                              : Audio Coding 3
Commercial name                          : Dolby Digital
Codec ID                                 : 129
Duration                                 : 1h 39mn
Bit rate mode                            : Constant
Bit rate                                 : 640 Kbps
Channel(s)                               : 6 channels
Channel layout                           : L R C LFE Ls Rs
Sampling rate                            : 48.0 KHz
Frame rate                               : 31.250 fps (1536 SPF)
Compression mode                         : Lossy
Delay relative to video                  : -8ms
Stream size                              : 453 MiB (1%)
Service kind                             : Complete Main

Audio #5
ID                                       : 4356 (0x1104)
Menu ID                                  : 1 (0x1)
Format                                   : AC-3
Format/Info                              : Audio Coding 3
Commercial name                          : Dolby Digital
Codec ID                                 : 129
Duration                                 : 1h 39mn
Bit rate mode                            : Constant
Bit rate                                 : 640 Kbps
Channel(s)                               : 6 channels
Channel layout                           : L R C LFE Ls Rs
Sampling rate                            : 48.0 KHz
Frame rate                               : 31.250 fps (1536 SPF)
Compression mode                         : Lossy
Delay relative to video                  : -8ms
Stream size                              : 453 MiB (1%)
Service kind                             : Complete Main

Audio #6
ID                                       : 4357 (0x1105)
Menu ID                                  : 1 (0x1)
Format                                   : AC-3
Format/Info                              : Audio Coding 3
Commercial name                          : Dolby Digital
Codec ID                                 : 129
Duration                                 : 1h 39mn
Bit rate mode                            : Constant
Bit rate                                 : 640 Kbps
Channel(s)                               : 6 channels
Channel layout                           : L R C LFE Ls Rs
Sampling rate                            : 48.0 KHz
Frame rate                               : 31.250 fps (1536 SPF)
Compression mode                         : Lossy
Delay relative to video                  : -8ms
Stream size                              : 453 MiB (1%)
Service kind                             : Complete Main

Audio #7
ID                                       : 4358 (0x1106)
Menu ID                                  : 1 (0x1)
Format                                   : AC-3
Format/Info                              : Audio Coding 3
Commercial name                          : Dolby Digital
Codec ID                                 : 129
Duration                                 : 1h 39mn
Bit rate mode                            : Constant
Bit rate                                 : 640 Kbps
Channel(s)                               : 6 channels
Channel layout                           : L R C LFE Ls Rs
Sampling rate                            : 48.0 KHz
Frame rate                               : 31.250 fps (1536 SPF)
Compression mode                         : Lossy
Delay relative to video                  : -8ms
Stream size                              : 453 MiB (1%)
Service kind                             : Complete Main

Audio #8
ID                                       : 4359 (0x1107)
Menu ID                                  : 1 (0x1)
Format                                   : AC-3
Format/Info                              : Audio Coding 3
Commercial name                          : Dolby Digital
Codec ID                                 : 129
Duration                                 : 1h 39mn
Bit rate mode                            : Constant
Bit rate                                 : 640 Kbps
Channel(s)                               : 6 channels
Channel layout                           : L R C LFE Ls Rs
Sampling rate                            : 48.0 KHz
Frame rate                               : 31.250 fps (1536 SPF)
Compression mode                         : Lossy
Delay relative to video                  : -8ms
Stream size                              : 453 MiB (1%)
Service kind                             : Complete Main

Audio #9
ID                                       : 4360 (0x1108)
Menu ID                                  : 1 (0x1)
Format                                   : DTS XLL
Format/Info                              : Digital Theater Systems
Commercial name                          : DTS-HD Master Audio
Muxing mode                              : Stream extension
Codec ID                                 : 134
Duration                                 : 1h 39mn
Bit rate mode                            : Variable
Channel(s)                               : 6 channels
Channel layout                           : C L R Ls Rs LFE
Sampling rate                            : 48.0 KHz
Frame rate                               : 93.750 fps (512 SPF)
Bit depth                                : 16 bits
Compression mode                         : Lossless

Audio #10
ID                                       : 4361 (0x1109)
Menu ID                                  : 1 (0x1)
Format                                   : AC-3
Format/Info                              : Audio Coding 3
Commercial name                          : Dolby Digital
Codec ID                                 : 129
Duration                                 : 1h 39mn
Bit rate mode                            : Constant
Bit rate                                 : 448 Kbps
Channel(s)                               : 6 channels
Channel layout                           : L R C LFE Ls Rs
Sampling rate                            : 48.0 KHz
Frame rate                               : 31.250 fps (1536 SPF)
Compression mode                         : Lossy
Delay relative to video                  : -8ms
Stream size                              : 317 MiB (1%)
Service kind                             : Complete Main

Audio #11
ID                                       : 4362 (0x110A)
Menu ID                                  : 1 (0x1)
Format                                   : DTS XLL
Format/Info                              : Digital Theater Systems
Commercial name                          : DTS-HD Master Audio
Muxing mode                              : Stream extension
Codec ID                                 : 134
Duration                                 : 1h 39mn
Bit rate mode                            : Variable
Channel(s)                               : 6 channels
Channel layout                           : C L R Ls Rs LFE
Sampling rate                            : 48.0 KHz
Frame rate                               : 93.750 fps (512 SPF)
Bit depth                                : 16 bits
Compression mode                         : Lossless

Audio #12
ID                                       : 4363 (0x110B)
Menu ID                                  : 1 (0x1)
Format                                   : AC-3
Format/Info                              : Audio Coding 3
Commercial name                          : Dolby Digital
Codec ID                                 : 129
Duration                                 : 1h 39mn
Bit rate mode                            : Constant
Bit rate                                 : 640 Kbps
Channel(s)                               : 6 channels
Channel layout                           : L R C LFE Ls Rs
Sampling rate                            : 48.0 KHz
Frame rate                               : 31.250 fps (1536 SPF)
Compression mode                         : Lossy
Delay relative to video                  : -8ms
Stream size                              : 453 MiB (1%)
Service kind                             : Complete Main

Audio #13
ID                                       : 4364 (0x110C)
Menu ID                                  : 1 (0x1)
Format                                   : AC-3
Format/Info                              : Audio Coding 3
Commercial name                          : Dolby Digital
Codec ID                                 : 129
Duration                                 : 1h 39mn
Bit rate mode                            : Constant
Bit rate                                 : 640 Kbps
Channel(s)                               : 6 channels
Channel layout                           : L R C LFE Ls Rs
Sampling rate                            : 48.0 KHz
Frame rate                               : 31.250 fps (1536 SPF)
Compression mode                         : Lossy
Delay relative to video                  : -8ms
Stream size                              : 453 MiB (1%)
Service kind                             : Complete Main

Audio #14
ID                                       : 4365 (0x110D)
Menu ID                                  : 1 (0x1)
Format                                   : AC-3
Format/Info                              : Audio Coding 3
Commercial name                          : Dolby Digital
Codec ID                                 : 129
Duration                                 : 1h 39mn
Bit rate mode                            : Constant
Bit rate                                 : 192 Kbps
Channel(s)                               : 2 channels
Channel layout                           : L R
Sampling rate                            : 48.0 KHz
Frame rate                               : 31.250 fps (1536 SPF)
Compression mode                         : Lossy
Delay relative to video                  : -8ms
Stream size                              : 136 MiB (0%)
Service kind                             : Complete Main

Text #1
ID                                       : 4768 (0x12A0)
Menu ID                                  : 1 (0x1)
Format                                   : PGS
Codec ID                                 : 144

Text #2
ID                                       : 4769 (0x12A1)
Menu ID                                  : 1 (0x1)
Format                                   : PGS
Codec ID                                 : 144

Text #3
ID                                       : 4770 (0x12A2)
Menu ID                                  : 1 (0x1)
Format                                   : PGS
Codec ID                                 : 144

Text #4
ID                                       : 4771 (0x12A3)
Menu ID                                  : 1 (0x1)
Format                                   : PGS
Codec ID                                 : 144

Text #5
ID                                       : 4772 (0x12A4)
Menu ID                                  : 1 (0x1)
Format                                   : PGS
Codec ID                                 : 144

Text #6
ID                                       : 4773 (0x12A5)
Menu ID                                  : 1 (0x1)
Format                                   : PGS
Codec ID                                 : 144

Text #7
ID                                       : 4774 (0x12A6)
Menu ID                                  : 1 (0x1)
Format                                   : PGS
Codec ID                                 : 144

Text #8
ID                                       : 4775 (0x12A7)
Menu ID                                  : 1 (0x1)
Format                                   : PGS
Codec ID                                 : 144

Text #9
ID                                       : 4776 (0x12A8)
Menu ID                                  : 1 (0x1)
Format                                   : PGS
Codec ID                                 : 144

Text #10
ID                                       : 4777 (0x12A9)
Menu ID                                  : 1 (0x1)
Format                                   : PGS
Codec ID                                 : 144

Text #11
ID                                       : 4778 (0x12AA)
Menu ID                                  : 1 (0x1)
Format                                   : PGS
Codec ID                                 : 144

Text #12
ID                                       : 4779 (0x12AB)
Menu ID                                  : 1 (0x1)
Format                                   : PGS
Codec ID                                 : 144

Text #13
ID                                       : 4780 (0x12AC)
Menu ID                                  : 1 (0x1)
Format                                   : PGS
Codec ID                                 : 144

Text #14
ID                                       : 4781 (0x12AD)
Menu ID                                  : 1 (0x1)
Format                                   : PGS
Codec ID                                 : 144

Text #15
ID                                       : 4782 (0x12AE)
Menu ID                                  : 1 (0x1)
Format                                   : PGS
Codec ID                                 : 144

Text #16
ID                                       : 4783 (0x12AF)
Menu ID                                  : 1 (0x1)
Format                                   : PGS
Codec ID                                 : 144

Text #17
ID                                       : 4784 (0x12B0)
Menu ID                                  : 1 (0x1)
Format                                   : PGS
Codec ID                                 : 144

Text #18
ID                                       : 4785 (0x12B1)
Menu ID                                  : 1 (0x1)
Format                                   : PGS
Codec ID                                 : 144

Text #19
ID                                       : 4786 (0x12B2)
Menu ID                                  : 1 (0x1)
Format                                   : PGS
Codec ID                                 : 144

Text #20
ID                                       : 4787 (0x12B3)
Menu ID                                  : 1 (0x1)
Format                                   : PGS
Codec ID                                 : 144

Text #21
ID                                       : 4788 (0x12B4)
Menu ID                                  : 1 (0x1)
Format                                   : PGS
Codec ID                                 : 144

Text #22
ID                                       : 4789 (0x12B5)
Menu ID                                  : 1 (0x1)
Format                                   : PGS
Codec ID                                 : 144

Text #23
ID                                       : 4790 (0x12B6)
Menu ID                                  : 1 (0x1)
Format                                   : PGS
Codec ID                                 : 144

Text #24
ID                                       : 4791 (0x12B7)
Menu ID                                  : 1 (0x1)
Format                                   : PGS
Codec ID                                 : 144

Text #25
ID                                       : 4792 (0x12B8)
Menu ID                                  : 1 (0x1)
Format                                   : PGS
Codec ID                                 : 144
Delay relative to video                  : 7s 340ms

Text #26
ID                                       : 4793 (0x12B9)
Menu ID                                  : 1 (0x1)
Format                                   : PGS
Codec ID                                 : 144
Delay relative to video                  : 7s 424ms

Text #27
ID                                       : 4794 (0x12BA)
Menu ID                                  : 1 (0x1)
Format                                   : PGS
Codec ID                                 : 144
Delay relative to video                  : 7s 424ms

Text #28
ID                                       : 4795 (0x12BB)
Menu ID                                  : 1 (0x1)
Format                                   : PGS
Codec ID                                 : 144
Delay relative to video                  : 7s 424ms

Text #29
ID                                       : 4796 (0x12BC)
Menu ID                                  : 1 (0x1)
Format                                   : PGS
Codec ID                                 : 144
Delay relative to video                  : 7s 424ms

Text #30
ID                                       : 4797 (0x12BD)
Menu ID                                  : 1 (0x1)
Format                                   : PGS
Codec ID                                 : 144
Delay relative to video                  : 7s 424ms

Text #31
ID                                       : 4798 (0x12BE)
Menu ID                                  : 1 (0x1)
Format                                   : PGS
Codec ID                                 : 144
Delay relative to video                  : 7s 424ms

apophis906
Posts: 4
Joined: Thu Oct 03, 2019 2:26 pm

Re: Zombieland Double Tap DTSX Issue

Post by apophis906 » Tue Jan 28, 2020 3:22 pm

I ripped my copy and it showed that it was just dts-ma as well. However when I played it my receiver showed dts-x. I Think it has to do with it being an imax enhanced one and some trick they did with the dts-x that mediainfo cant understand.

Esch30
Posts: 12
Joined: Thu Mar 07, 2019 2:24 am

Re: Zombieland Double Tap DTSX Issue

Post by Esch30 » Sun Feb 02, 2020 1:22 pm

I can also confirm that after ripping this disc, my receiver (Denon X8500H) displays IMAX DTS:X when bitstreaming via KODI on an ODROID N2, so everything appears to work as normal in regards to audio with this disc.

spl147
Posts: 236
Joined: Mon Dec 10, 2012 4:59 pm

Re: Zombieland Double Tap DTSX Issue

Post by spl147 » Wed Feb 05, 2020 10:28 pm

Thank you both for clarifying

Post Reply