Can't find Dolby ATMOS track in Transformers The Last Knight

Please post here for issues related to Blu-ray discs
Post Reply
mbmast
Posts: 3
Joined: Mon Dec 18, 2017 7:51 pm

Can't find Dolby ATMOS track in Transformers The Last Knight

Post by mbmast » Mon Dec 18, 2017 7:58 pm

After ripping Transformers The Last Knight I noticed no 8 channel audio track. Here's what MediaArea's MediaInfo says about the resulting MKV file:

Code: Select all

General
Unique ID                                : 18579494054423165857548180472308383605 (0xDFA47C7F91F170CBED1017386A33F75)
Complete name                            : \\vmware-host\Shared Folders\Video\Transformers_The_Last_Knight_t00.mkv
Format                                   : Matroska
Format version                           : Version 2
File size                                : 34.2 GiB
Duration                                 : 2 h 34 min
Overall bit rate mode                    : Variable
Overall bit rate                         : 31.7 Mb/s
Movie name                               : Transformers The Last Knight
Encoded date                             : UTC 2017-12-17 20:01:30
Writing application                      : MakeMKV v1.10.8 win(x64-release)
Writing library                          : libmakemkv v1.10.8 (1.3.5/1.4.7) win(x64-release)

Video
ID                                       : 1
ID in the original source medium         : 4113 (0x1011)
Format                                   : AVC
Format/Info                              : Advanced Video Codec
Format profile                           : High@L4.1
Format settings                          : CABAC / 4 Ref Frames
Format settings, CABAC                   : Yes
Format settings, RefFrames               : 4 frames
Codec ID                                 : V_MPEG4/ISO/AVC
Duration                                 : 2 h 34 min
Bit rate mode                            : Variable
Bit rate                                 : 27.6 Mb/s
Maximum bit rate                         : 31.0 Mb/s
Width                                    : 1 920 pixels
Height                                   : 1 080 pixels
Display aspect ratio                     : 16:9
Frame rate mode                          : Constant
Frame rate                               : 23.976 (24000/1001) FPS
Color space                              : YUV
Chroma subsampling                       : 4:2:0
Bit depth                                : 8 bits
Scan type                                : Progressive
Bits/(Pixel*Frame)                       : 0.556
Stream size                              : 29.8 GiB (87%)
Language                                 : English
Default                                  : No
Forced                                   : No
Original source medium                   : Blu-ray

Audio #1
ID                                       : 2
ID in the original source medium         : 4352 (0x1100)
Format                                   : AC-3
Format/Info                              : Audio Coding 3
Codec ID                                 : A_AC3
Duration                                 : 2 h 34 min
Bit rate mode                            : Constant
Bit rate                                 : 640 kb/s
Channel(s)                               : 6 channels
Channel positions                        : Front: L C R, Side: L R, LFE
Sampling rate                            : 48.0 kHz
Frame rate                               : 31.250 FPS (1536 SPF)
Bit depth                                : 16 bits
Compression mode                         : Lossy
Stream size                              : 708 MiB (2%)
Title                                    : Surround 5.1
Language                                 : English
Service kind                             : Complete Main
Default                                  : Yes
Forced                                   : No
Original source medium                   : Blu-ray

Audio #2
ID                                       : 3
ID in the original source medium         : 4353 (0x1101)
Format                                   : AC-3
Format/Info                              : Audio Coding 3
Codec ID                                 : A_AC3
Duration                                 : 2 h 34 min
Bit rate mode                            : Constant
Bit rate                                 : 640 kb/s
Channel(s)                               : 6 channels
Channel positions                        : Front: L C R, Side: L R, LFE
Sampling rate                            : 48.0 kHz
Frame rate                               : 31.250 FPS (1536 SPF)
Bit depth                                : 16 bits
Compression mode                         : Lossy
Stream size                              : 708 MiB (2%)
Title                                    : Surround 5.1
Language                                 : English
Service kind                             : Complete Main
Default                                  : No
Forced                                   : No
Original source medium                   : Blu-ray

Audio #3
ID                                       : 4
ID in the original source medium         : 4355 (0x1103)
Format                                   : AC-3
Format/Info                              : Audio Coding 3
Codec ID                                 : A_AC3
Duration                                 : 2 h 34 min
Bit rate mode                            : Constant
Bit rate                                 : 640 kb/s
Channel(s)                               : 6 channels
Channel positions                        : Front: L C R, Side: L R, LFE
Sampling rate                            : 48.0 kHz
Frame rate                               : 31.250 FPS (1536 SPF)
Bit depth                                : 16 bits
Compression mode                         : Lossy
Stream size                              : 708 MiB (2%)
Title                                    : Surround 5.1
Language                                 : French
Service kind                             : Complete Main
Default                                  : No
Forced                                   : No
Original source medium                   : Blu-ray

Audio #4
ID                                       : 5
ID in the original source medium         : 4356 (0x1104)
Format                                   : AC-3
Format/Info                              : Audio Coding 3
Codec ID                                 : A_AC3
Duration                                 : 2 h 34 min
Bit rate mode                            : Constant
Bit rate                                 : 640 kb/s
Channel(s)                               : 6 channels
Channel positions                        : Front: L C R, Side: L R, LFE
Sampling rate                            : 48.0 kHz
Frame rate                               : 31.250 FPS (1536 SPF)
Bit depth                                : 16 bits
Compression mode                         : Lossy
Stream size                              : 708 MiB (2%)
Title                                    : Surround 5.1
Language                                 : Spanish
Service kind                             : Complete Main
Default                                  : No
Forced                                   : No
Original source medium                   : Blu-ray

Audio #5
ID                                       : 6
ID in the original source medium         : 4357 (0x1105)
Format                                   : AC-3
Format/Info                              : Audio Coding 3
Codec ID                                 : A_AC3
Duration                                 : 2 h 34 min
Bit rate mode                            : Constant
Bit rate                                 : 640 kb/s
Channel(s)                               : 6 channels
Channel positions                        : Front: L C R, Side: L R, LFE
Sampling rate                            : 48.0 kHz
Frame rate                               : 31.250 FPS (1536 SPF)
Bit depth                                : 16 bits
Compression mode                         : Lossy
Stream size                              : 708 MiB (2%)
Title                                    : Surround 5.1
Language                                 : Portuguese
Service kind                             : Complete Main
Default                                  : No
Forced                                   : No
Original source medium                   : Blu-ray

Audio #6
ID                                       : 7
ID in the original source medium         : 4358 (0x1106)
Format                                   : AC-3
Format/Info                              : Audio Coding 3
Codec ID                                 : A_AC3
Duration                                 : 2 h 34 min
Bit rate mode                            : Constant
Bit rate                                 : 640 kb/s
Channel(s)                               : 6 channels
Channel positions                        : Front: L C R, Side: L R, LFE
Sampling rate                            : 48.0 kHz
Frame rate                               : 31.250 FPS (1536 SPF)
Bit depth                                : 16 bits
Compression mode                         : Lossy
Stream size                              : 708 MiB (2%)
Title                                    : Surround 5.1
Language                                 : English
Service kind                             : Complete Main
Default                                  : No
Forced                                   : No
Original source medium                   : Blu-ray

Text #1
ID                                       : 8
ID in the original source medium         : 4608 (0x1200)
Format                                   : PGS
Codec ID                                 : S_HDMV/PGS
Codec ID/Info                            : Picture based subtitle format used on BDs/HD-DVDs
Duration                                 : 2 h 24 min
Bit rate                                 : 41.6 kb/s
Count of elements                        : 4552
Stream size                              : 43.1 MiB (0%)
Language                                 : English
Default                                  : No
Forced                                   : No
Original source medium                   : Blu-ray

Text #2
ID                                       : 10
ID in the original source medium         : 4609 (0x1201)
Format                                   : PGS
Codec ID                                 : S_HDMV/PGS
Codec ID/Info                            : Picture based subtitle format used on BDs/HD-DVDs
Duration                                 : 2 h 25 min
Bit rate                                 : 48.9 kb/s
Count of elements                        : 5240
Stream size                              : 51.0 MiB (0%)
Language                                 : English
Default                                  : No
Forced                                   : No
Original source medium                   : Blu-ray

Text #3
ID                                       : 12
ID in the original source medium         : 4610 (0x1202)
Format                                   : PGS
Codec ID                                 : S_HDMV/PGS
Codec ID/Info                            : Picture based subtitle format used on BDs/HD-DVDs
Duration                                 : 2 h 25 min
Bit rate                                 : 40.1 kb/s
Count of elements                        : 4614
Stream size                              : 41.8 MiB (0%)
Language                                 : French
Default                                  : No
Forced                                   : No
Original source medium                   : Blu-ray

Text #4
ID                                       : 13
ID in the original source medium         : 4610 (0x1202)
Format                                   : PGS
Codec ID                                 : S_HDMV/PGS
Codec ID/Info                            : Picture based subtitle format used on BDs/HD-DVDs
Duration                                 : 2 h 3 min
Bit rate                                 : 469 b/s
Count of elements                        : 48
Stream size                              : 424 KiB (0%)
Language                                 : French
Default                                  : No
Forced                                   : No
Original source medium                   : Blu-ray

Text #5
ID                                       : 14
ID in the original source medium         : 4611 (0x1203)
Format                                   : PGS
Codec ID                                 : S_HDMV/PGS
Codec ID/Info                            : Picture based subtitle format used on BDs/HD-DVDs
Duration                                 : 2 h 25 min
Bit rate                                 : 38.6 kb/s
Count of elements                        : 4576
Stream size                              : 40.2 MiB (0%)
Language                                 : Spanish
Default                                  : No
Forced                                   : No
Original source medium                   : Blu-ray

Text #6
ID                                       : 15
ID in the original source medium         : 4611 (0x1203)
Format                                   : PGS
Codec ID                                 : S_HDMV/PGS
Codec ID/Info                            : Picture based subtitle format used on BDs/HD-DVDs
Duration                                 : 2 h 3 min
Bit rate                                 : 463 b/s
Count of elements                        : 46
Stream size                              : 418 KiB (0%)
Language                                 : Spanish
Default                                  : No
Forced                                   : No
Original source medium                   : Blu-ray

Text #7
ID                                       : 16
ID in the original source medium         : 4612 (0x1204)
Format                                   : PGS
Codec ID                                 : S_HDMV/PGS
Codec ID/Info                            : Picture based subtitle format used on BDs/HD-DVDs
Duration                                 : 2 h 25 min
Bit rate                                 : 35.6 kb/s
Count of elements                        : 4614
Stream size                              : 37.1 MiB (0%)
Language                                 : Portuguese
Default                                  : No
Forced                                   : No
Original source medium                   : Blu-ray

Text #8
ID                                       : 17
ID in the original source medium         : 4612 (0x1204)
Format                                   : PGS
Codec ID                                 : S_HDMV/PGS
Codec ID/Info                            : Picture based subtitle format used on BDs/HD-DVDs
Duration                                 : 2 h 3 min
Bit rate                                 : 451 b/s
Count of elements                        : 46
Stream size                              : 407 KiB (0%)
Language                                 : Portuguese
Default                                  : No
Forced                                   : No
Original source medium                   : Blu-ray

Menu
00:00:00.000                             : en:Chapter 01
00:06:36.104                             : en:Chapter 02
00:14:03.467                             : en:Chapter 03
00:21:45.762                             : en:Chapter 04
00:27:53.254                             : en:Chapter 05
00:33:53.906                             : en:Chapter 06
00:40:08.906                             : en:Chapter 07
00:46:58.941                             : en:Chapter 08
00:53:25.785                             : en:Chapter 09
01:02:02.927                             : en:Chapter 10
01:08:47.081                             : en:Chapter 11
01:14:37.222                             : en:Chapter 12
01:20:10.180                             : en:Chapter 13
01:29:13.389                             : en:Chapter 14
01:37:59.498                             : en:Chapter 15
01:44:57.582                             : en:Chapter 16
01:51:15.502                             : en:Chapter 17
01:57:59.447                             : en:Chapter 18
02:06:09.728                             : en:Chapter 19
02:10:54.096                             : en:Chapter 20
02:16:01.153                             : en:Chapter 21
02:21:42.619                             : en:Chapter 22
02:25:17.291                             : en:Chapter 23
Am I doing something wrong? How do I get MakeMKV to include the DOLBY ATMOS track?

mbmast
Posts: 3
Joined: Mon Dec 18, 2017 7:51 pm

Re: Can't find Dolby ATMOS track in Transformers The Last Kn

Post by mbmast » Mon Dec 18, 2017 8:40 pm

I likely have answered my own question. In MakeMKV, once the media is loaded, the media type is displayed. This section can be expanded and individual tracks selected or deselected. I did not have TrueHD selected. This is likely my problem:
MakeMKV.png
MakeMKV.png (54.45 KiB) Viewed 3597 times
I'll try again and post my results.

preserve
Posts: 361
Joined: Sun Sep 13, 2015 10:21 pm
Location: Canada

Re: Can't find Dolby ATMOS track in Transformers The Last Kn

Post by preserve » Tue Dec 19, 2017 2:03 am

mbmast wrote:I likely have answered my own question. In MakeMKV, once the media is loaded, the media type is displayed. This section can be expanded and individual tracks selected or deselected. I did not have TrueHD selected. This is likely my problem: I'll try again and post my results.
Yup - good luck!

In the preferences, you can also setup selection rules so that when you open a disc, you're ready (or close to ready) to go:

http://www.makemkv.com/forum2/viewtopic.php?f=10&t=4386

This is what I start with:
- deselect everything to have a blank slate
- select 3D video (when present)
- select only favorite language tracks, as per favorite language specified in prefs - English for me
- deselect core audio (when present) to keep just the full HD audio, rather than having the core be a separate, additional audio track taking up space

-sel:all,+sel:(favlang|mvcvideo),-sel:(core)

I then just have to remember to check for commentary audio or descriptive audio - keeping the former and discarding the latter :) - as well as original language tracks for foreign films.
Using: ASUS BW-16D1HT 3.00 || UHD FAQ - If you're new to UHD, read it!

angelgraves13
Posts: 91
Joined: Thu Jun 06, 2013 9:36 pm

Re: Can't find Dolby ATMOS track in Transformers The Last Kn

Post by angelgraves13 » Fri Dec 22, 2017 10:34 pm

If it’s a rental from Netflix or redbox then it won’t have an Atmos track.

thedigitalhobo
Posts: 39
Joined: Thu Jun 13, 2013 1:49 am
Contact:

Re: Can't find Dolby ATMOS track in Transformers The Last Kn

Post by thedigitalhobo » Sun Jan 14, 2018 12:23 am

angelgraves13 wrote:If it’s a rental from Netflix or redbox then it won’t have an Atmos track.
That is categorically untrue. All of these titles, from Netflix, have an Atmos or DTSX track.

10 Cloverfield Lane
13 Hours: Secret Soldiers Benghazi
American Sniper
Daddy's Home
Everest
Ex Machina
Fantastic Beasts and Where to Find Them
Fate of the Furious, The
Girl on the Train, The
Jack Reacher: Never Go Back
Jason Bourne
Kong: Skull Island
Legend of Tarzan, The
Live by Night
London Has Fallen
Mad Max: Fury Road
Man from UNCLE, The
Minions
Mission Impossible: Rogue Nation
Pan
Pixels
San Andreas
Secret Life of Pets, The
Sing
Suicide Squad
Sully
Teenage Mutant Ninja Turles
Teenage Mutant Ninja Turles: Out of the Shaddows
Terminator Genisys
Transformers: Age of Extinction
Unbroken
Ghost in the Shell
Baywatch
King Arthur: Legend of the Sword
Atomic Blonde
Transformers: The Last Knight
Star Trek Beyond
Despicable Me 3
American Assassin

Post Reply