Page 2 of 2

Re: Escape Plan (2013)

Posted: Wed Feb 05, 2014 9:11 pm
by Rydsen
Good to know. My Panasonic player reported the same run time of 1:55:35, so I ripped both mpls that matched that run time but hadn't watched them to confirm yet.

On a side note, I'm glad to see the new feature (even if it's not working exactly right yet) of attempting to discover the correct mpls. That will definitely come in handy. Thanks, Mike.

Re: Escape Plan (2013)

Posted: Thu Feb 06, 2014 1:43 am
by Rydsen
PMJohnson9 wrote:
unab0mb wrote:Confirmed. 00578.mpls is the winner.
Just finished watching through it myself - I concur with 578..
Likewise. Just watched the rip of 578 in time with the actual bluray on my HT system and it matches exactly.

Re: Escape Plan (2013)

Posted: Tue Feb 11, 2014 6:38 pm
by Fuggin
00578.mpls won't show up as a choice for me to select. How do I select that particular playlist?

Re: Escape Plan (2013)

Posted: Tue Feb 11, 2014 6:54 pm
by JBravo
Fuggin wrote:00578.mpls won't show up as a choice for me to select. How do I select that particular playlist?
look for the one with t113.mkv

Re: Escape Plan (2013)

Posted: Tue Feb 11, 2014 7:31 pm
by Fuggin
JBravo wrote:
Fuggin wrote:00578.mpls won't show up as a choice for me to select. How do I select that particular playlist?
look for the one with t113.mkv
That's whats throwing me off. I only get choices of t0-t14.mkv

Re: Escape Plan (2013)

Posted: Tue Feb 11, 2014 11:42 pm
by jobber872
Fuggin wrote:
JBravo wrote:
Fuggin wrote:00578.mpls won't show up as a choice for me to select. How do I select that particular playlist?
look for the one with t113.mkv
That's whats throwing me off. I only get choices of t0-t14.mkv
Same here. No 00578 and no t113. Looks like 00117 and 00610 match the time on the first page of this thread. I have the US Retail Release. Just bought it today.

Re: Escape Plan (2013)

Posted: Wed Feb 12, 2014 2:27 am
by jobber872
jobber872 wrote:
Same here. No 00578 and no t113. Looks like 00117 and 00610 match the time on the first page of this thread. I have the US Retail Release. Just bought it today.
DVDFab is showing 00610 as the right one. I'll try that.

Re: Escape Plan (2013)

Posted: Fri Feb 14, 2014 4:38 pm
by drcorso
Retail disc here too. I think you can use either 117 or 610 and here is why I say that.


Here are the 2 playlists:

Name: Escape Plan (English)
Source file name: 00117.mpls
Duration: 1:55:35
Chapters count: 16
Size: 33.1 GB
Segment count: 15
Segment map: 507,501,530,502,503,510,508,505,509,512,513,514,515,511,506
File name: Escape_Plan_t04.mkv

Name: Escape Plan (English)
Source file name: 00610.mpls
Duration: 1:55:35
Chapters count: 16
Size: 33.1 GB
Segment count: 15
Segment map: 507,501,530,502,503,510,508,505,509,512,513,514,515,533,506
File name: Escape_Plan_t11.mkv

The only 2 scenes different are 511 and 533 between these 2 playlists and they appear to be identical when I watched them and with mediainfo.

********************************************************
General
ID : 0 (0x0)
Complete name : D:\BDMV\STREAM\00511.m2ts
Format : BDAV
Format/Info : Blu-ray Video
File size : 129 MiB
Duration : 23s 940ms
Overall bit rate mode : Variable
Overall bit rate : 45.1 Mbps
Maximum Overall bit rate : 48.0 Mbps

Video
ID : 4113 (0x1011)
Menu ID : 1 (0x1)
Format : AVC
Format/Info : Advanced Video Codec
Format profile : High@L4.1
Format settings, CABAC : Yes
Format settings, ReFrames : 4 frames
Codec ID : 27
Duration : 24s 107ms
Bit rate mode : Variable
Maximum bit rate : 37.0 Mbps
Width : 1 920 pixels
Height : 1 080 pixels
Display aspect ratio : 16:9
Frame rate : 23.976 fps
Color space : YUV
Chroma subsampling : 4:2:0
Bit depth : 8 bits
Scan type : Progressive

Audio #1
ID : 4352 (0x1100)
Menu ID : 1 (0x1)
Format : DTS
Format/Info : Digital Theater Systems
Format profile : MA / Core
Mode : 16
Format settings, Endianness : Big
Muxing mode : Stream extension
Codec ID : 134
Duration : 24s 107ms
Bit rate mode : Variable
Bit rate : Unknown / 1 509 Kbps
Channel(s) : 8 channels / 6 channels
Channel positions : Front: L C R, Side: L R, Back: L R, LFE / Front: L C R, Side: L R, LFE
Sampling rate : 48.0 KHz
Bit depth : 24 bits
Compression mode : Lossless / Lossy

Audio #2
ID : 4353 (0x1101)
Menu ID : 1 (0x1)
Format : AC-3
Format/Info : Audio Coding 3
Format profile : Dolby Digital
Mode extension : CM (complete main)
Format settings, Endianness : Big
Codec ID : 129
Duration : 24s 128ms
Bit rate mode : Constant
Bit rate : 224 Kbps
Channel(s) : 2 channels
Channel positions : Front: L R
Sampling rate : 48.0 KHz
Bit depth : 16 bits
Compression mode : Lossy
Stream size : 660 KiB (1%)

*********************************************************

General
ID : 0 (0x0)
Complete name : D:\BDMV\STREAM\00533.m2ts
Format : BDAV
Format/Info : Blu-ray Video
File size : 129 MiB
Duration : 23s 940ms
Overall bit rate mode : Variable
Overall bit rate : 45.1 Mbps
Maximum Overall bit rate : 48.0 Mbps

Video
ID : 4113 (0x1011)
Menu ID : 1 (0x1)
Format : AVC
Format/Info : Advanced Video Codec
Format profile : High@L4.1
Format settings, CABAC : Yes
Format settings, ReFrames : 4 frames
Codec ID : 27
Duration : 24s 107ms
Bit rate mode : Variable
Maximum bit rate : 37.0 Mbps
Width : 1 920 pixels
Height : 1 080 pixels
Display aspect ratio : 16:9
Frame rate : 23.976 fps
Color space : YUV
Chroma subsampling : 4:2:0
Bit depth : 8 bits
Scan type : Progressive

Audio #1
ID : 4352 (0x1100)
Menu ID : 1 (0x1)
Format : DTS
Format/Info : Digital Theater Systems
Format profile : MA / Core
Mode : 16
Format settings, Endianness : Big
Muxing mode : Stream extension
Codec ID : 134
Duration : 24s 107ms
Bit rate mode : Variable
Bit rate : Unknown / 1 509 Kbps
Channel(s) : 8 channels / 6 channels
Channel positions : Front: L C R, Side: L R, Back: L R, LFE / Front: L C R, Side: L R, LFE
Sampling rate : 48.0 KHz
Bit depth : 24 bits
Compression mode : Lossless / Lossy

Audio #2
ID : 4353 (0x1101)
Menu ID : 1 (0x1)
Format : AC-3
Format/Info : Audio Coding 3
Format profile : Dolby Digital
Mode extension : CM (complete main)
Format settings, Endianness : Big
Codec ID : 129
Duration : 24s 128ms
Bit rate mode : Constant
Bit rate : 224 Kbps
Channel(s) : 2 channels
Channel positions : Front: L R
Sampling rate : 48.0 KHz
Bit depth : 16 bits
Compression mode : Lossy
Stream size : 660 KiB (1%)

Re: Escape Plan (2013)

Posted: Tue Feb 25, 2014 4:04 am
by rjbell4
Mike, is there something we can do to help debug the detection of the primary title?

Re: Escape Plan (2013)

Posted: Tue Nov 25, 2014 6:28 pm
by NutFlush920
Just ran it though AnyDVD HD and it said "Java BD protection good playlists: 578" on my disc.

Re: Escape Plan (2013)

Posted: Thu Sep 24, 2015 7:22 am
by Lstewart2525
This is probably not correct, but I went to this site:

http://www.bbfc.co.uk/releases/escape-plan-film

which shows a run time of 115 minutes and 29 seconds, and thus I chose 00426.

Hopefully, I'll get a chance to watch the film this weekend and report on whether have a perfect copy or not.

Re: Escape Plan (2013)

Posted: Fri Sep 25, 2015 5:17 am
by Lstewart2525
Sorry, I was wrong. It's definitely not 426. That one takes a later scene and places it out of order in an earlier time in the movie. Almost looks like a flashback that is repeated later, but 426 is just not it. Gonna try 578 now.