Dolby Vision now possible through MP4 Mux.

Please post here for issues related to UHD discs
H4M3D
Posts: 1
Joined: Wed Jun 05, 2019 11:44 am

Re: Dolby Vision now possible through MP4 Mux.

Post by H4M3D » Wed Jun 05, 2019 11:52 am

I've tried the DVDFab with Earth One Amazing Day DV, however when I choose MP4.Dolby Vision and add the Blu ray folder it throws an error containing "The current profile you choose cannot support your video source", And then after the video has been imported it disables the MP4.Dolby Vision option. What is interesting is that it recognizes that it is Dolby Vision under the HDR tab after the video being added, but it can't convert it somehow.
Has anybody encountered this problem?

Grencola
Posts: 171
Joined: Sun Jan 27, 2019 5:19 pm

Re: Dolby Vision now possible through MP4 Mux.

Post by Grencola » Wed Jun 05, 2019 1:24 pm

Donpablo80 wrote:
Wed Jun 05, 2019 8:47 am
bgalakazam wrote:
Tue Jun 04, 2019 9:07 pm
I was able to get the slider working but it's still fairly low and get a 46GB output file from a 80+ GB input file. This solution for me is a no-go. I'll stick with MP4 passthrough and 5.1 1.5MBit audio or HDR + Atmos and lossless for now. The titles I would want everything I can just buy.

Until a straightforward method comes out (other than Oppo, of course) I am happy with the two compromises.

Image
Yes, i encoded blackkklansman that have a original video bitrate of 67Mb, the encoded file have a bitrate of 48Mb, that's a lot of loss. I just mailed DVDFab if future updates will allow higher bitrates.
How'd you manage to make Aquaman go from 52.7 Mbps to only 48.2 Mbps? That's a more acceptable loss, for me..

Donpablo80
Posts: 18
Joined: Sat May 25, 2019 7:04 pm

Re: Dolby Vision now possible through MP4 Mux.

Post by Donpablo80 » Wed Jun 05, 2019 1:39 pm

Grencola wrote:
Wed Jun 05, 2019 1:24 pm
Donpablo80 wrote:
Wed Jun 05, 2019 8:47 am
bgalakazam wrote:
Tue Jun 04, 2019 9:07 pm
I was able to get the slider working but it's still fairly low and get a 46GB output file from a 80+ GB input file. This solution for me is a no-go. I'll stick with MP4 passthrough and 5.1 1.5MBit audio or HDR + Atmos and lossless for now. The titles I would want everything I can just buy.

Until a straightforward method comes out (other than Oppo, of course) I am happy with the two compromises.

Image
Yes, i encoded blackkklansman that have a original video bitrate of 67Mb, the encoded file have a bitrate of 48Mb, that's a lot of loss. I just mailed DVDFab if future updates will allow higher bitrates.
How'd you manage to make Aquaman go from 52.7 Mbps to only 48.2 Mbps? That's a more acceptable loss, for me..
The video bitrate of aquaman is 52.7Mb, that's almost the max bitrate that DVDFab can produce, so the loss is less. If the movie is 67Mb than the loss is more, because DVDFab can go max 50Mb.

Grencola
Posts: 171
Joined: Sun Jan 27, 2019 5:19 pm

Re: Dolby Vision now possible through MP4 Mux.

Post by Grencola » Wed Jun 05, 2019 1:58 pm

Donpablo80 wrote:
Wed Jun 05, 2019 1:39 pm
Grencola wrote:
Wed Jun 05, 2019 1:24 pm
Donpablo80 wrote:
Wed Jun 05, 2019 8:47 am


Yes, i encoded blackkklansman that have a original video bitrate of 67Mb, the encoded file have a bitrate of 48Mb, that's a lot of loss. I just mailed DVDFab if future updates will allow higher bitrates.
How'd you manage to make Aquaman go from 52.7 Mbps to only 48.2 Mbps? That's a more acceptable loss, for me..
The video bitrate of aquaman is 52.7Mb, that's almost the max bitrate that DVDFab can produce, so the loss is less. If the movie is 67Mb than the loss is more, because DVDFab can go max 50Mb.
Maybe they're trying to make it fit on a 50gb bd-r disc. Hopefully they up it to 100gb bd-xl in the next update.

ragico
Posts: 17
Joined: Fri Feb 15, 2019 1:09 am

Re: Dolby Vision now possible through MP4 Mux.

Post by ragico » Wed Jun 05, 2019 2:40 pm

I successfully encoded "Fantastic Beasts: The Crimes of Grindelwald " with dvdfab (thanks @Donpablo80 ).
It works on my Lg C8.
Then I tried to remux the video track with the atmos audio track to get possibly lossless audio and dolby vision.
As Donpablo80 said, txmuxer does not recognize the video file made by dvdfab, so I tried to mux via toolnix changing the file extension to mp4.
No chance.
this is the mediainfo from the mp4 created in toolnix:

General
Unique ID : 241322947582280796528475140446861635825 (0xB58D1BEE15F537DD734E380FD15BB0F1)
Complete name : G:\Fantastic Beasts The Crimes of Grindelwald.mp4
Format : Matroska
Format version : Version 4
File size : 48.8 GiB
Duration : 2 h 13 min
Overall bit rate mode : Variable
Overall bit rate : 52.2 Mb/s
Encoded date : UTC 2019-06-05 11:47:19
Writing application : mkvmerge v34.0.0 ('Sight and Seen') 64-bit
Writing library : libebml v1.3.7 + libmatroska v1.5.0
FileExtension_Invalid : mkv mk3d mka mks

Video
ID : 1
Format : V_QUICKTIME
Codec ID : V_QUICKTIME
Duration : 2 h 13 min
Bit rate : 48.3 Mb/s
Width : 3 840 pixels
Height : 2 160 pixels
Display aspect ratio : 16:9
Frame rate mode : Constant
Frame rate : 23.976 FPS
Bits/(Pixel*Frame) : 0.243
Stream size : 45.1 GiB (92%)
Language : English
Default : Yes
Forced : No

Audio #1
ID : 2
Format : MLP FBA 16-ch
Format/Info : Meridian Lossless Packing FBA with 16-channel presentation
Commercial name : Dolby TrueHD with Dolby Atmos
Codec ID : A_TRUEHD
Duration : 2 h 13 min
Bit rate mode : Variable
Bit rate : 3 497 kb/s
Maximum bit rate : 5 457 kb/s
Channel(s) : 8 channels
Channel layout : L R C LFE Ls Rs Lb Rb
Sampling rate : 48.0 kHz
Frame rate : 1 200.000 FPS (40 SPF)
Compression mode : Lossless
Stream size : 3.27 GiB (7%)
Language : Italian
Default : Yes
Forced : No
Number of dynamic objects : 15
Bed channel count : 1 channel
Bed channel configuration : LFE

Audio #2
ID : 3
Format : AC-3
Format/Info : Audio Coding 3
Commercial name : Dolby Digital
Codec ID : A_AC3
Duration : 2 h 13 min
Bit rate mode : Constant
Bit rate : 448 kb/s
Channel(s) : 6 channels
Channel layout : L R C LFE Ls Rs
Sampling rate : 48.0 kHz
Frame rate : 31.250 FPS (1536 SPF)
Bit depth : 16 bits
Compression mode : Lossy
Stream size : 429 MiB (1%)
Language : Italian
Service kind : Complete Main
Default : No
Forced : No

If I mux with mkv extension, still same result.

hepe9
Posts: 9
Joined: Mon Jun 03, 2019 11:04 am

Re: Dolby Vision now possible through MP4 Mux.

Post by hepe9 » Wed Jun 05, 2019 5:49 pm

Ok guys

Finally I can do it, make a single layer DV of a movie and dont work on a Sony Tv x900f, I have audio only.

So dont work for Sony Tvs.

Feel frees to try it.

Grencola
Posts: 171
Joined: Sun Jan 27, 2019 5:19 pm

Re: Dolby Vision now possible through MP4 Mux.

Post by Grencola » Wed Jun 05, 2019 6:11 pm

ragico wrote:
Wed Jun 05, 2019 2:40 pm
I successfully encoded "Fantastic Beasts: The Crimes of Grindelwald " with dvdfab (thanks @Donpablo80 ).
It works on my Lg C8.
Then I tried to remux the video track with the atmos audio track to get possibly lossless audio and dolby vision.
As Donpablo80 said, txmuxer does not recognize the video file made by dvdfab, so I tried to mux via toolnix changing the file extension to mp4.
No chance.
this is the mediainfo from the mp4 created in toolnix:

General
Unique ID : 241322947582280796528475140446861635825 (0xB58D1BEE15F537DD734E380FD15BB0F1)
Complete name : G:\Fantastic Beasts The Crimes of Grindelwald.mp4
Format : Matroska
Format version : Version 4
File size : 48.8 GiB
Duration : 2 h 13 min
Overall bit rate mode : Variable
Overall bit rate : 52.2 Mb/s
Encoded date : UTC 2019-06-05 11:47:19
Writing application : mkvmerge v34.0.0 ('Sight and Seen') 64-bit
Writing library : libebml v1.3.7 + libmatroska v1.5.0
FileExtension_Invalid : mkv mk3d mka mks

Video
ID : 1
Format : V_QUICKTIME
Codec ID : V_QUICKTIME
Duration : 2 h 13 min
Bit rate : 48.3 Mb/s
Width : 3 840 pixels
Height : 2 160 pixels
Display aspect ratio : 16:9
Frame rate mode : Constant
Frame rate : 23.976 FPS
Bits/(Pixel*Frame) : 0.243
Stream size : 45.1 GiB (92%)
Language : English
Default : Yes
Forced : No

Audio #1
ID : 2
Format : MLP FBA 16-ch
Format/Info : Meridian Lossless Packing FBA with 16-channel presentation
Commercial name : Dolby TrueHD with Dolby Atmos
Codec ID : A_TRUEHD
Duration : 2 h 13 min
Bit rate mode : Variable
Bit rate : 3 497 kb/s
Maximum bit rate : 5 457 kb/s
Channel(s) : 8 channels
Channel layout : L R C LFE Ls Rs Lb Rb
Sampling rate : 48.0 kHz
Frame rate : 1 200.000 FPS (40 SPF)
Compression mode : Lossless
Stream size : 3.27 GiB (7%)
Language : Italian
Default : Yes
Forced : No
Number of dynamic objects : 15
Bed channel count : 1 channel
Bed channel configuration : LFE

Audio #2
ID : 3
Format : AC-3
Format/Info : Audio Coding 3
Commercial name : Dolby Digital
Codec ID : A_AC3
Duration : 2 h 13 min
Bit rate mode : Constant
Bit rate : 448 kb/s
Channel(s) : 6 channels
Channel layout : L R C LFE Ls Rs
Sampling rate : 48.0 kHz
Frame rate : 31.250 FPS (1536 SPF)
Bit depth : 16 bits
Compression mode : Lossy
Stream size : 429 MiB (1%)
Language : Italian
Service kind : Complete Main
Default : No
Forced : No

If I mux with mkv extension, still same result.
I'll try with ffmpeg and a few other tools and see if I can get it.

Grencola
Posts: 171
Joined: Sun Jan 27, 2019 5:19 pm

Re: Dolby Vision now possible through MP4 Mux.

Post by Grencola » Wed Jun 05, 2019 6:14 pm

hepe9 wrote:
Wed Jun 05, 2019 5:49 pm
Ok guys

Finally I can do it, make a single layer DV of a movie and dont work on a Sony Tv x900f, I have audio only.

So dont work for Sony Tvs.

Feel frees to try it.
Sony's really got it locked down hey :(

hepe9
Posts: 9
Joined: Mon Jun 03, 2019 11:04 am

Re: Dolby Vision now possible through MP4 Mux.

Post by hepe9 » Wed Jun 05, 2019 7:43 pm

Grencola wrote:
Wed Jun 05, 2019 6:14 pm
hepe9 wrote:
Wed Jun 05, 2019 5:49 pm
Ok guys

Finally I can do it, make a single layer DV of a movie and dont work on a Sony Tv x900f, I have audio only.

So dont work for Sony Tvs.

Feel frees to try it.
Sony's really got it locked down hey :(
I dont know what the hell happends with the fucking Sony OS, but now I want to play a demo DV file, befored played good, but now, black screen and only audio.

So I reset the TV and the demo play again, I can't understand nothing, maybe the file created for dvdfab "corrupted" the video app? i don't know, i wanna try again with the rip of the movie created with dvdfab and I post the results.

Really really hate the OS of Sony, is the worst with the fucking laggy Android, i want the fabollous LG OS and play Dual layers of DV

hepe9
Posts: 9
Joined: Mon Jun 03, 2019 11:04 am

Re: Dolby Vision now possible through MP4 Mux.

Post by hepe9 » Wed Jun 05, 2019 9:16 pm

Ok

Final results, the rip of the movie in DV single layer its play but bad, all colors are green.

So this method doesn't work for Sony Tvs

Looking the mediainfo of the demos, they play good, has 2 differences. Codec ID : mp42 (mp42/isom/dby1) vs mp42 (mp42/dby1/isom) and HDR format : Dolby Vision, Version 1.0, dvhe.05.06, BL+RPU vs 1.0, dvhe.05.09, BL+RPU.

I don't know if is important or no, just is a crap and dont work on the fucking Sony tv

This is the mediainfo posted by Donpablo80 created in DVDFab;

Format : MPEG-4
Format profile : Base Media / Version 2
Codec ID : mp42 (mp42/isom/dby1)
File size : 48,8 GiB
Duration : 2 h 23 min
Overall bit rate : 48,7 Mb/s
Movie name : AQUAMAN.Title89
Encoded date : UTC 2019-06-01 06:28:37
Tagged date : UTC 2019-06-01 07:14:49
Writing application : DVDFab 11.0.3.4
Cover : Yes

Video
ID : 1
Format : HEVC
Format/Info : High Efficiency Video Coding
Format profile : Main 10@L5.1@High
HDR format : Dolby Vision, Version 1.0, dvhe.05.06, BL+RPU
Codec ID : dvhe
Codec ID/Info : High Efficiency Video Coding with Dolby Vision
Duration : 2 h 23 min
Bit rate : 48,2 Mb/s
Width : 3 840 pixels
Height : 2 160 pixels
Display aspect ratio : 16:9
Frame rate mode : Constant
Frame rate : 23,976 (24000/1001) FPS
Color space : YUV
Chroma subsampling : 4:2:0 (Type 2)
Bit depth : 10 bits
Bits/(Pixel*Frame) : 0.242
Stream size : 48,2 GiB (99%)
Encoded date : UTC 2019-06-01 06:28:37
Tagged date : UTC 2019-06-01 07:11:03
Color range : Limited
Color primaries : BT.2020
Transfer characteristics : PQ
Matrix coefficients : BT.2020 non-constant
Codec configuration box : hvcC+dvcC

Audio
ID : 2
Format : AC-3
Format/Info : Audio Coding 3
Commercial name : Dolby Digital
Codec ID : ac-3
Duration : 2 h 23 min
Bit rate mode : Constant
Bit rate : 640 kb/s
Channel(s) : 6 kanalen
Channel layout : L R C LFE Ls Rs
Sampling rate : 48,0 kHz
Frame rate : 31,250 FPS (1536 SPF)
Bit depth : 16 bits
Stream size : 656 MiB (1%)
Title : English (ac3 5.1)
Language : Engels
Service kind : Complete Main
Default : Ja
Alternate group : 1
Encoded date : UTC 2019-06-01 06:28:37
Tagged date : UTC 2019-06-01 07:11:03


And this the mediainfo of the demos;

Format : MPEG-4
Format profile : Base Media / Version 2
Codec ID : mp42 (mp42/dby1/isom)
File size : 510 MiB
Duration : 2 min 23 s
Overall bit rate : 29.9 Mb/s
Encoded date : UTC 2017-04-13 22:51:30
Tagged date : UTC 2017-04-13 22:51:30

Video
ID : 1
Format : HEVC
Format/Info : High Efficiency Video Coding
Format profile : Main 10@L5.1@Main
Dolby Vision : 1.0, dvhe.05.09, BL+RPU
Codec ID : dvhe
Codec ID/Info : High Efficiency Video Coding with Dolby Vision
Duration : 2 min 23 s
Bit rate : 29.3 Mb/s
Width : 3 840 pixels
Height : 2 160 pixels
Display aspect ratio : 16:9
Frame rate mode : Constant
Frame rate : 59.940 (60000/1001) FPS
Color space : YUV
Chroma subsampling : 4:2:0
Bit depth : 10 bits
Bits/(Pixel*Frame) : 0.059
Stream size : 499 MiB (98%)
Encoded date : UTC 2017-04-13 22:51:30
Tagged date : UTC 2017-04-13 22:51:30
Codec configuration box : hvcC+dvcC

Audio
ID : 2
Format : E-AC-3 JOC
Format/Info : Enhanced AC-3 with Joint Object Coding
Commercial name : Dolby Digital Plus with Dolby Atmos
Codec ID : ec-3
Duration : 2 min 22 s
Bit rate mode : Constant
Bit rate : 640 kb/s
Channel(s) : 6 channels
Channel layout : L R C LFE Ls Rs
Sampling rate : 48.0 kHz
Frame rate : 31.250 FPS (1536 SPF)
Bit depth : 16 bits
Compression mode : Lossy
Stream size : 10.9 MiB (2%)
Service kind : Complete Main
Encoded date : UTC 2017-04-13 22:51:30
Tagged date : UTC 2017-04-13 22:51:30
Complexity index : 14
Number of dynamic objects : 13
Bed channel count : 1 channel
Bed channel configuration : LFE

Grencola
Posts: 171
Joined: Sun Jan 27, 2019 5:19 pm

Re: Dolby Vision now possible through MP4 Mux.

Post by Grencola » Wed Jun 05, 2019 10:34 pm

hepe9 wrote:
Wed Jun 05, 2019 7:43 pm
Grencola wrote:
Wed Jun 05, 2019 6:14 pm
hepe9 wrote:
Wed Jun 05, 2019 5:49 pm
Ok guys

Finally I can do it, make a single layer DV of a movie and dont work on a Sony Tv x900f, I have audio only.

So dont work for Sony Tvs.

Feel frees to try it.
Sony's really got it locked down hey :(
I dont know what the hell happends with the fucking Sony OS, but now I want to play a demo DV file, befored played good, but now, black screen and only audio.

So I reset the TV and the demo play again, I can't understand nothing, maybe the file created for dvdfab "corrupted" the video app? i don't know, i wanna try again with the rip of the movie created with dvdfab and I post the results.

Really really hate the OS of Sony, is the worst with the fucking laggy Android, i want the fabollous LG OS and play Dual layers of DV
That's about what I would expect from Android TV :lol:
Maybe just pop in a $50 Amazon fire tv 4k stick, it prolly works fine with single layer files lol..

Grencola
Posts: 171
Joined: Sun Jan 27, 2019 5:19 pm

Re: Dolby Vision now possible through MP4 Mux.

Post by Grencola » Thu Jun 06, 2019 12:59 am

Damn, my old crappy win7 laptop can't make single layer mp4s. it sits at 12% complete everytime, and uses 100% CPU until I stop it. left it for over 21 hours @ full CPU but remained the same, surprised I didn't kill my laptop lol. it works fine with dv passthrough. I was hoping I could make a. ts file with hd-audio to try on different devices :/

generalmilk
Posts: 3
Joined: Fri May 31, 2019 6:53 pm

Re: Dolby Vision now possible through MP4 Mux.

Post by generalmilk » Thu Jun 06, 2019 7:02 am

oh man, Sony is only one left over. This sucks.

Grencola
Posts: 171
Joined: Sun Jan 27, 2019 5:19 pm

Re: Dolby Vision now possible through MP4 Mux.

Post by Grencola » Fri Jun 07, 2019 2:10 pm

benhur wrote:
Thu Jun 06, 2019 5:07 pm
tango306 wrote:
Tue May 28, 2019 5:51 am
MartyMcNuts wrote:
Tue May 28, 2019 4:19 am


I think CloneBD can now rip to DV mp4.
Just tried the CloneBD 1.2.5.0 for Star Wars: The Last Jedi rip.
It worked wonderfully. Thank you!
It works also with tsMuxer GUI 2.6.12 (i use this)
You just have to "add" the first m2ts and then "join" the second m2ts, ... etc ... then select the tracks you need, and demux.
For Star Wars 8 it's easy, only 2 m2ts :D
You should try Gladiator ... :roll:

A great tool to find how to chain the m2ts is BDInfo (https://www.videohelp.com/software/BDInfo)

exemple
Image
Uhhh, so the largest m2ts in the stream folder isn't always the entire movie?! there's a couple other m2ts files with the last missing minutes that need to be joined?! if so then this is a problem, as my script just uses the largest m2ts, and I (plus others it helped) would have countless incomplete dv mp4's. I've watched so many and from opening sequence up to the credits there was no missing parts. even dvdfab uhd ripper only uses the largest m2ts when you add a bdmv folder.

BozoXL
Posts: 5
Joined: Sat May 18, 2019 7:14 pm

Re: Dolby Vision now possible through MP4 Mux.

Post by BozoXL » Fri Jun 07, 2019 2:42 pm

.....
Grencola wrote:
Fri Jun 07, 2019 2:10 pm
Uhhh, so the largest m2ts in the stream folder isn't always the entire movie?! there's a couple other m2ts files with the last missing minutes that need to be joined?! if so then this is a problem, as my script just uses the largest m2ts, and I (plus others it helped) would have countless incomplete dv mp4's. I've watched so many and from opening sequence up to the credits there was no missing parts. even dvdfab uhd ripper only uses the largest m2ts when you add a bdmv folder.
When ripping a BD disc, you should always try to use the correct playlist from the Playlists folder. Most of the time I find out by running index.bdmv with something like PotPlayer.
Most UHD BDs only use one MTS file, but most regular BD discs use a bunch. Sometimes to put Directors Cut and Theatrical Cut on the same disc or maybe old time file size limit. The Playlist also has the chapters included, which are not included in the MTS files. I do most with my ripping with MKVToolnix or StaxRip demuxing features.

Post Reply